Valerian and the City of a Thousand Planets 2017 720p KORSUB HDRip x264 AAC2 0-STUTTERSHIT
1.909 vistas

  • Information
  • Trailer

Sinopsis de Valerian and the City of a Thousand Planets 2017 720p KORSUB HDRip x264 AAC2 0-STUTTERSHIT ()

A dark force threatens Alpha, a vast metropolis and home to species from a thousand planets. Special operatives Valerian and Laureline must race to identify the marauding menace and safeguard not just Alpha, but the future of the universe.
Director: Luc Besson
Writers: Pierre Christin (based on the comic book series “Valerian and Laureline” by), Jean-Claude Mézières (based on the comic book series “Valerian and Laureline” by) | 1 more credit »
Stars: Dane DeHaan, Cara Delevingne, Clive Owen

Video
ID : 1
Format : AVC
Format/Info : Advanced Video Codec
Format profile : [email protected]
Format settings, CABAC : Yes
Format settings, ReFrames : 4 frames
Codec ID : avc1
Codec ID/Info : Advanced Video Coding
Duration : 2 h 16 min
Bit rate : 3 500 kb/s
Width : 1 280 pixels
Height : 536 pixels
Display aspect ratio : 2.40:1
Frame rate mode : Constant
Frame rate : 23.976 (24000/1001) FPS
Color space : YUV
Chroma subsampling : 4:2:0
Bit depth : 8 bits
Scan type : Progressive
Bits/(Pixel*Frame) : 0.213
Stream size : 3.32 GiB (94%)

Audio
ID : 2
Format : AAC
Format/Info : Advanced Audio Codec
Format profile : LC
Codec ID : 40
Duration : 2 h 16 min
Bit rate mode : Constant
Bit rate : 224 kb/s
Channel(s) : 2 channels
Channel positions : Front: L R
Sampling rate : 48.0 kHz
Frame rate : 46.875 FPS (1024 spf)
Compression mode : Lossy
Stream size : 219 MiB (6%)
Title : Valerian.and.the.City.of.a.Thousand.Planets.2017.720p.KORSUB.HDRip.x264.AAC2.0-STUTTERSHIT
Default : Yes
Alternate group : 1

45830237410099462112.png00178484706892305591.png76183825107284063396.png


Configure TagCopy to clipboard estadisticas