2014 Transcendence 2014 WEB-DL XviD MP3-RBG
4.030 vistas

  • Information
  • Trailer
Transcendence 2014 WEB-DL XviD MP3-RBG (2014)

Rating IMDb 6.4/10 - 23,344 votos

Original title Transcendence

Duration 119 min

Year

Release 18 Apr 2014

Origin UK, China, USA

Languages English

Director

Script

Awards 1 win & 3 nominations.

genre drama,HDRip

PG-13 Sinopsis de Transcendence 2014 WEB-DL XviD MP3-RBG (2014)

A scientist’s drive for artificial intelligence, takes on dangerous implications when his consciousness is uploaded into one such program.

 

http://imdb.com/title/tt2209764/

Info:

Format                                   : AVI
Format/Info                              : Audio Video Interleave
File size                                : 1.50 GiB
Duration                                 : 1h 59mn
Overall bit rate                         : 1 802 Kbps
Movie name                               : Transcendence.2014.WEB-DL.XviD.MP3-RBG
Writing library                          : VirtualDub build 35491/release
Comment                                  : Transcendence.2014.WEB-DL.XviD.MP3-RBG

Video
ID                                       : 0
Format                                   : MPEG-4 Visual
Format profile                           : [email protected]
Format settings, BVOP                    : No
Format settings, QPel                    : No
Format settings, GMC                     : No warppoints
Format settings, Matrix                  : Default (H.263)
Codec ID                                 : XVID
Codec ID/Hint                            : XviD
Duration                                 : 1h 59mn
Bit rate                                 : 1 597 Kbps
Width                                    : 720 pixels
Height                                   : 300 pixels
Display aspect ratio                     : 2.40:1
Frame rate                               : 23.976 fps
Color space                              : YUV
Chroma subsampling                       : 4:2:0
Bit depth                                : 8 bits
Scan type                                : Progressive
Compression mode                         : Lossy
Bits/(Pixel*Frame)                       : 0.308
Stream size                              : 1.33 GiB (89%)
Writing library                          : Lavc55.61.100

Audio
ID                                       : 1
Format                                   : MPEG Audio
Format version                           : Version 1
Format profile                           : Layer 3
Mode                                     : Joint stereo
Mode extension                           : MS Stereo
Codec ID                                 : 55
Codec ID/Hint                            : MP3
Duration                                 : 1h 59mn
Bit rate mode                            : Constant
Bit rate                                 : 192 Kbps
Channel(s)                               : 2 channels
Sampling rate                            : 48.0 KHz
Compression mode                         : Lossy
Stream size                              : 164 MiB (11%)
Alignment                                : Aligned on interleaves
Interleave, duration                     : 24 ms (0.58 video frame)
Interleave, preload duration             : 504 ms







Deja un comentario

Configure TagCopy to clipboard estadisticas