2015 The Witch 2016 HDTS XviD-VAiN
2.482 vistas

  • Information
  • Trailer
The Witch 2016 HDTS XviD-VAiN (2015)

Rating IMDb 7.4/10 - 12,301 votos

Original title The Witch

Duration 92 min

Year

Release 19 Feb 2016

Origin USA, UK, Canada, Brazil

Languages English

Director

Script

Awards 6 wins & 2 nominations.

genre New Movies,Telesync,Terror

Cast , ,

R Sinopsis de The Witch 2016 HDTS XviD-VAiN (2015)

http://www.imdb.com/title/tt4263482/

A family in 1630s New England is torn apart by the forces of witchcraft, black magic and possession.

Director: Robert Eggers
Writer: Robert Eggers
Stars: Anya Taylor-Joy, Ralph Ineson, Kate Dickie
Genres: Horror | Mystery
Country: USA | UK | Canada | Brazil
Language: English

Basic Information
Format : AVI
Format/Info : Audio Video Interleave
File size : 1.22 GiB
Duration : 1h 23mn
Overall bit rate : 2 081 Kbps
Writing application : VirtualDubMod 1.5.10.2 (build 2540/release)
Writing library : VirtualDubMod build 2540/release

Video
ID : 0
Format : MPEG-4 Visual
Format profile : Advanced [email protected]
Format settings, BVOP : 2
Format settings, QPel : No
Format settings, GMC : No warppoints
Format settings, Matrix : Default (H.263)
Muxing mode : Packed bitstream
Codec ID : XVID
Codec ID/Hint : XviD
Duration : 1h 23mn
Bit rate : 1 878 Kbps
Width : 720 pixels
Height : 400 pixels
Display aspect ratio : 16:9
Frame rate : 29.970 (30000/1001) fps
Color space : YUV
Chroma subsampling : 4:2:0
Bit depth : 8 bits
Scan type : Progressive
Compression mode : Lossy
Bits/(Pixel*Frame) : 0.218
Stream size : 1.10 GiB (90%)
Writing library : XviD 64

Audio
ID : 1
Format : AC-3
Format/Info : Audio Coding 3
Mode extension : CM (complete main)
Format settings, Endianness : Big
Codec ID : 2000
Duration : 1h 23mn
Bit rate mode : Constant
Bit rate : 192 Kbps
Channel(s) : 2 channels
Channel positions : Front: L R
Sampling rate : 48.0 KHz
Frame rate : 31.250 fps (1536 spf)
Compression mode : Lossy
Stream size : 115 MiB (9%)
Alignment : Split accross interleaves
Interleave, duration : 33 ms (1.00 video frame)
Interleave, preload duration : 500 ms

E N C O D E R S . N O T E S . . .

SOURCE……: Cam & LiNE neither are ours but someone elses….thanks to those the cammed and capped this for all us to use.
…………:
SAMPLE……:
ADDED NOTE..: encoded using filters same as everyone else. muxed audio over Boom… release

image image image image image


estadisticas