2014 The Loft 2015 CAMRiP XviD-FANTA
4.669 vistas

  • Information
  • Trailer
The Loft 2015 CAMRiP XviD-FANTA (2014)

Rating IMDb 6.7/10 - 2,629 votos

Original title The Loft

Duration 108 min

Year

Release 30 Jan 2015

Origin Belgium, USA

Languages English

Director

Script ,

Awards N/A

genre CAM,New Movies,Thriller

Cast , ,

R Sinopsis de The Loft 2015 CAMRiP XviD-FANTA (2014)

http://www.imdb.com/title/tt1850397/

Five married guys conspire to secretly share a penthouse loft in the city–a place where they can carry out hidden affairs and indulge in their deepest fantasies. But the fantasy becomes a nightmare when they discover the dead body of an unknown woman in the loft, and they realize one of the group must be involved.

Director: Erik Van Looy
Writers: Bart De Pauw (screenplay), Wesley Strick (screenplay)
Stars: Karl Urban, James Marsden, Wentworth Miller
Genres: Thriller
Country: Belgium | USA
Language: English

Format : AVI
Format/Info : Audio Video Interleave
Format profile : OpenDML
Format settings : rec
File size : 1.41 GiB
Duration : 1h 37mn
Overall bit rate : 2 085 Kbps
Writing application : AVI-Mux GUI 1.17.8.3, Feb 16 201019:42:50

Video
ID : 0
Format : MPEG-4 Visual
Format profile : Advanced [email protected]
Format settings, BVOP : 2
Format settings, QPel : No
Format settings, GMC : No warppoints
Format settings, Matrix : Default (H.263)
Muxing mode : Packed bitstream
Codec ID : XVID
Codec ID/Hint : XviD
Duration : 1h 37mn
Bit rate : 1 888 Kbps
Width : 720 pixels
Height : 404 pixels
Display aspect ratio : 16:9
Frame rate : 23.976 fps
Color space : YUV
Chroma subsampling : 4:2:0
Bit depth : 8 bits
Scan type : Progressive
Compression mode : Lossy
Bits/(Pixel*Frame) : 0.271
Stream size : 1.28 GiB (91%)
Writing library : XviD 64

Audio
ID : 1
Format : AC-3
Format/Info : Audio Coding 3
Codec ID : 2000
Duration : 1h 37mn
Bit rate mode : Constant
Bit rate : 192 Kbps
Channel(s) : 2 channels
Sampling rate : 44.1 KHz
Compression mode : Lossy
Stream size : 133 MiB (9%)
Alignment : Aligned on interleaves
Title : The Loft 2015 CAMRiP

image
image
image
image
image
image
image
image
image
image
image
image


Configure TagCopy to clipboard estadisticas