2016 The Jungle Book 2016 CAM XviD AC3-VAiN
5.148 vistas

  • Information
  • Trailer
The Jungle Book 2016 CAM XviD AC3-VAiN (2016)

Rating IMDb N/A/10 - N/A votos

Original title The Jungle Book

Duration 105 min

Year

Release 15 Apr 2016

Origin USA

Languages English

Director

Script ,

Awards N/A

genre adventure,CAM,drama,family,New Movies

Cast , , ,

PG Sinopsis de The Jungle Book 2016 CAM XviD AC3-VAiN (2016)

http://www.imdb.com/title/tt3040964/

An orphan boy is raised in the jungle with the help of a pack of wolves, a bear, and a black panther.

Director: Jon Favreau
Writers: Justin Marks (screenplay), Rudyard Kipling (book)
Stars: Neel Sethi, Bill Murray, Ben Kingsley
Genres: Adventure | Drama | Family | Fantasy
Country: USA
Language: English

P R E S E N T S . . . .

The.Jungle.Book.2016.CAM.XviD.AC3-VAiN

iMDB……..: http://www.imdb.com/title/tt3040964/

PLOT……..: An orphan boy is raised in the jungle with the help of a pack of wolves, a bear, and a black panther.

T E C H N i C A L . i N F O . . .

Basic Information
Format : MPEG-4 Visual
Format profile : Advanced [email protected]
Format settings, BVOP : 2
Format settings, QPel : No
Format settings, GMC : No warppoints
Format settings, Matrix : Default (H.263)
Muxing mode : Packed bitstream
Codec ID : XVID
Codec ID/Hint : XviD
Duration : 1h 29mn
Bit rate : 1 984 Kbps
Width : 720 pixels
Height : 320 pixels
Display aspect ratio : 2.25:1
Frame rate : 29.970 (29970/1000) fps
Color space : YUV
Chroma subsampling : 4:2:0
Bit depth : 8 bits
Scan type : Progressive
Compression mode : Lossy
Bits/(Pixel*Frame) : 0.287
Stream size : 1.24 GiB (91%)
Writing library : XviD 64

Audio
ID : 1
Format : AC-3
Format/Info : Audio Coding 3
Mode extension : CM (complete main)
Format settings, Endianness : Big
Codec ID : 2000
Duration : 1h 29mn
Bit rate mode : Constant
Bit rate : 192 Kbps
Channel(s) : 2 channels
Channel positions : Front: L R
Sampling rate : 48.0 KHz
Frame rate : 31.250 fps (1536 spf)
Compression mode : Lossy
Stream size : 123 MiB (9%)
Alignment : Aligned on interleaves
Interleave, duration : 33 ms (1.00 video frame)
Interleave, preload duratio : 512 ms

E N C O D E R S . N O T E S . . .

SOURCE……: Russian + UnKnOwN + A.C.A.B.
…………:
SAMPLE……: Yippers
ADDED NOTE..: resized, adjusted rgb, lvls, sharp and a few other filter. audio is ok it’s just a cam though. ran that thru a few filters to try to help out.
beware there are few dark spots in the movie, they go into a cave and gets pretty dark. took screens to try to represent encode w/ the gud n’ bad…

V/6 A/4.5 M/6 just not my cuppa tea….

enjoy or don’t. sample is there for all to see

 


Configure TagCopy to clipboard estadisticas