2016 The Huntsman Winters War 2016 CAM XviD-VAiN
4.397 vistas

  • Information
  • Trailer
The Huntsman Winters War 2016 CAM XviD-VAiN (2016)

Rating IMDb N/A/10 - N/A votos

Original title The Huntsman: Winter's War

Duration N/A

Year

Release 22 Apr 2016

Origin USA

Languages English

Director

Script , ,

Awards N/A

genre Action,adventure,CAM,drama,fantasy,New Movies

Cast , ,

PG-13 Sinopsis de The Huntsman Winters War 2016 CAM XviD-VAiN (2016)

http://www.imdb.com/title/tt2381991/

As a war between rival queen sisters Ravenna and Freya escalates, Eric and fellow warrior Sara, members of the Huntsmen army raised to protect Freya, try to conceal their forbidden love as they combat Ravenna’s wicked intentions.

Director: Cedric Nicolas-Troyan
Writers: Evan Spiliotopoulos, Craig Mazin
Stars: Chris Hemsworth, Jessica Chastain, Charlize Theron
Genres: Action | Adventure | Drama | Fantasy
Country: USA
Language: English

Basic Information
Format : AVI
Format/Info : Audio Video Interleave
File size : 1.32 GiB
Duration : 1h 43mn
Overall bit rate : 1 825 Kbps
Writing library : VirtualDub build 35491/release

Video
ID : 0
Format : MPEG-4 Visual
Format profile : Advanced [email protected]
Format settings, BVOP : 2
Format settings, QPel : No
Format settings, GMC : No warppoints
Format settings, Matrix : Default (H.263)
Muxing mode : Packed bitstream
Codec ID : XVID
Codec ID/Hint : XviD
Duration : 1h 43mn
Bit rate : 1 752 Kbps
Width : 720 pixels
Height : 266 pixels
Display aspect ratio : 2.707
Frame rate : 23.976 (24000/1001) fps
Color space : YUV
Chroma subsampling : 4:2:0
Bit depth : 8 bits
Scan type : Progressive
Compression mode : Lossy
Bits/(Pixel*Frame) : 0.382
Stream size : 1.27 GiB (96%)
Writing library : XviD 64

Audio
ID : 1
Format : MPEG Audio
Format version : Version 1
Format profile : Layer 3
Codec ID : 55
Codec ID/Hint : MP3
Duration : 1h 43mn
Bit rate mode : Constant
Bit rate : 64.0 Kbps
Channel(s) : 1 channel
Sampling rate : 44.1 KHz
Compression mode : Lossy
Delay relative to video : 2ms
Stream size : 47.3 MiB (3%)
Alignment : Split accross interleaves
Interleave, duration : 42 ms (1.00 video frame)
Interleave, preload duratio : 500 ms

E N C O D E R S . N O T E S . . .

SOURCE……: ViDEO…The Huntsman Winter’s War 2016 480p CAM – Sniper
…………: AUDiO…The Huntsman Winter’s War 2016 480p CAM – Sniper
SAMPLE……: Yippers
ADDED NOTE..: vid is ok… rotated, cropped, chopped and resized. used multiple filters to adjust rgb, lvl’s, sharp, smooth, white-balance etc…
audio is ok vid is cool. it’s a cam, this is not for the people expecting Bluray or WEB-DL QUALiTY. just a cam….

null


Configure TagCopy to clipboard estadisticas