2015 Home 2015 READNFO CAM X264 AC3 TiTAN
4.925 vistas

  • Information
  • Trailer
Home 2015 READNFO CAM X264 AC3 TiTAN (2015)

Rating IMDb 6.8/10 - 1,008 votos

Original title Home

Duration 94 min

Year

Release 27 Mar 2015

Origin USA

Languages English

Director

Script , ,

Awards N/A

genre adventure,animation,CAM,comedy,family,fantasy,New Movies,syfy

Cast , ,

PG Sinopsis de Home 2015 READNFO CAM X264 AC3 TiTAN (2015)

http://www.imdb.com/title/tt2224026/

When Oh, a loveable misfit from another planet, lands on Earth and finds himself on the run from his own people, he forms an unlikely friendship with an adventurous girl named Tip who is on a quest of her own. Through a series of comic adventures with Tip, Oh comes to understand that being different and making mistakes is all part of being human. And while he changes her planet and she changes his world, they discover the true meaning of the word HOME.

Director: Tim Johnson
Writers: Tom J. Astle (screenplay), Matt Ember (screenplay)
Stars: Jim Parsons, Rihanna, Steve Martin
Genres: Animation | Adventure | Comedy | Family | Fantasy | Sci-Fi
Country: USA
Language: English

Source: ACAB {big thx and much respect}

Pretty nice vid and audio, is missing first two min of movie, and is a little dark at times.. but still a very watchable cam.. Enjoy

General

Format : Matroska
Format version : Version 2
File size : 1 022 MiB
Duration : 1h 21mn
Overall bit rate mode : Variable
Overall bit rate : 1 763 Kbps
Encoded date : UTC 2015-04-09 18:56:57

Video
ID : 1
Format : AVC
Format/Info : Advanced Video Codec
Format profile : [email protected]
Format settings, CABAC : Yes
Format settings, ReFrames : 3 frames
Codec ID : V_MPEG4/ISO/AVC
Duration : 1h 21mn
Bit rate mode : Variable
Bit rate : 1 504 Kbps
Maximum bit rate : 40.0 Mbps
Width : 720 pixels
Height : 400 pixels
Display aspect ratio : 16:9
Frame rate mode : Constant
Frame rate : 23.976 fps
Color space : YUV
Chroma subsampling : 4:2:0
Bit depth : 8 bits
Scan type : Progressive
Bits/(Pixel*Frame) : 0.218
Stream size : 872 MiB (85%)
Default : Yes
Forced : No
Color primaries : BT.709
Transfer characteristics : BT.709
Matrix coefficients : BT.709

Audio
ID : 2
Format : AC-3
Format/Info : Audio Coding 3
Mode extension : CM (complete main)
Format settings, Endianness : Big
Codec ID : A_AC3
Duration : 1h 21mn
Bit rate mode : Constant
Bit rate : 224 Kbps
Channel(s) : 6 channels
Channel positions : Front: L C R, Side: L R, LFE
Sampling rate : 48.0 KHz
Bit depth : 16 bits
Compression mode : Lossy
Delay relative to video : 100ms
Stream size : 130 MiB (13%)
Default : Yes
Forced : No

 

Click To Resize

 

Click To Resize

 

Click To Resize

 

Click To Resize

 

Click To Resize

 

Click To Resize

 

Click To Resize

 

Click To Resize

 


estadisticas