2014 Dracula Untold 2014 HDTS x264 AC3 Pimp
5.605 vistas

  • Information
  • Trailer
Dracula Untold 2014 HDTS x264 AC3 Pimp (2014)

Rating IMDb 6.2/10 - 26,241 votos

Original title Dracula Untold

Duration 92 min

Year

Release 10 Oct 2014

Origin USA

Languages English

Director

Script , ,

Awards N/A

genre Action,drama,fantasy,New Movies,Telesync

PG-13 Sinopsis de Dracula Untold 2014 HDTS x264 AC3 Pimp (2014)

As his kingdom is being threatened by the Turks, young prince Vlad Tepes must become a monster feared by his own kingdom in order to obtain the power needed to protect his own family, and the families of his kingdom.
Video
ID : 0
Format : MPEG-4 Visual
Format profile : Advanced [email protected]
Format settings, BVOP : 2
Format settings, QPel : No
Format settings, GMC : No warppoints
Format settings, Matrix : Default (H.263)
Muxing mode : Packed bitstream
Codec ID : XVID
Codec ID/Hint : XviD
Duration : 1h 24mn
Bit rate : 1 205 Kbps
Width : 688 pixels
Height : 288 pixels
Display aspect ratio : 2.40:1
Frame rate : 29.970 fps
Color space : YUV
Chroma subsampling : 4:2:0
Bit depth : 8 bits
Scan type : Progressive
Compression mode : Lossy
Bits/(Pixel*Frame) : 0.203
Stream size : 730 MiB (90%)
Writing library : XviD 64

Audio
ID : 1
Format : AC-3
Format/Info : Audio Coding 3
Mode extension : CM (complete main)
Format settings, Endianness : Big
Codec ID : 2000
Duration : 1h 24mn
Bit rate mode : Constant
Bit rate : 128 Kbps
Channel(s) : 2 channels
Channel positions : Front: L R
Sampling rate : 48.0 KHz
Bit depth : 16 bits
Compression mode : Lossy
Stream size : 77.5 MiB (10%)
Alignment : Aligned on interleaves
Interleave, duration : 33 ms (1.00 video frame)
Interleave, preload duration : 512 ms


Deja un comentario

3b639f13775600bcb251de9a6123a892.jpg estadisticas